DownTS
...Dobrodosli na DownTS forum...
Molimo vas prijavite se, a ako nemate account registrujte se.


...programi, filmovi 300mb, igrice, slike, muzika...
 
PrijemKalendarRegistruj sePristupi
Traži
 
 

Rezultati od :
 
Rechercher Napredna potraga
Navigacija
 Portal
 Indeks
 Lista članova
 Profil
 FAQ - Često Postavljana Pitanja
 Traži
Zadnje teme
» Pevaj Brate (2010) DVDRip
Ned 07 Okt 2012, 9:55 pm od quovadis

» Burnout Paradise Full PC
Uto 19 Jun 2012, 11:52 pm od djodjo

» The Expendables (2010) + prevod
Čet 23 Feb 2012, 2:26 am od zrbrka

» DriverMax PRO 5.6
Sub 18 Feb 2012, 1:39 am od ziravuk

» Sherlock Holmes A Game Of Shadows (2011) CAM 400MB - 1link
Uto 10 Jan 2012, 12:31 pm od fantom92

» The Tourist[2010]DvDrip - 1link
Uto 10 Jan 2012, 2:39 am od fantom92

» The Dilemma 2011 BDRip
Uto 10 Jan 2012, 2:30 am od fantom92

» NEW KIDS TURBO (2011)
Uto 10 Jan 2012, 2:26 am od fantom92

» Red (2010) DvDrip-aXXo + prevod
Pon 09 Jan 2012, 1:51 pm od fantom92


Delite | 
 

 The Smurfs (2011)BDRip + prevod

Ići dole 
AutorPoruka
fantom92

avatar

Broj poruka : 617
Datum upisa : 05.01.2010
Godina : 26

PočaljiNaslov: The Smurfs (2011)BDRip + prevod   Sre 04 Jan 2012, 6:16 pm

The Smurfs (2011)BDRip.xvid + prevod



Kod:
General
Complete name : E:The Smurfs (2011)BDRip.xvid_By_anubora_.avi
Format : AVI
Format/Info : Audio Video Interleave
File size : 700 MiB
Duration : 1h 42mn
Overall bit rate mode : Variable
Overall bit rate : 953 Kbps
Writing application : VirtualDubMod 1.5.10.2 (build 2540/release)
Writing library : VirtualDubMod build 2540/release

Video
ID : 0
Format : MPEG-4 Visual
Format profile : Advanced Simple@L5
Format settings, BVOP : 2
Format settings, QPel : No
Format settings, GMC : No warppoints
Format settings, Matrix : Default (H.263)
Codec ID : XVID
Codec ID/Hint : XviD
Duration : 1h 42mn
Bit rate : 812 Kbps
Width : 624 pixels
Height : 352 pixels
Display aspect ratio : 16:9
Frame rate : 23.976 fps
Color space : YUV
Chroma subsampling : 4:2:0
Bit depth : 8 bits
Scan type : Progressive
Compression mode : Lossy
Bits/(Pixel*Frame) : 0.154
Stream size : 597 MiB (85%)
Writing library : XviD 1.2.1 (UTC 2008-12-04)

Audio
ID : 1
Format : MPEG Audio
Format version : Version 1
Format profile : Layer 3
Mode : Joint stereo
Codec ID : 55
Codec ID/Hint : MP3
Duration : 1h 42mn
Bit rate mode : Variable
Bit rate : 128 Kbps
Channel(s) : 2 channels
Sampling rate : 48.0 KHz
Compression mode : Lossy
Stream size : 93.9 MiB (13%)
Alignment : Aligned on interleaves
Interleave, duration : 24 ms (0.58 video frame)
Interleave, preload duration : 144 ms
Writing library : LAME3.90.
Encoding settings : -m j -V 4 -q 2 -lowpass 17.6 --abr 128



Download:

Fileserve:

Kod:

http://www.fileserve.com/file/HMS6kPQ
Nazad na vrh Ići dole
 
The Smurfs (2011)BDRip + prevod
Nazad na vrh 
Strana 1 od 1
 Similar topics
-
» Демографија Бачке Паланке
» Hunter x Hunter 2011

Dozvole ovog foruma:Ne možete odgovarati na teme u ovom forumu
DownTS :: Filmovi i Serije :: Strani filmovi-
Skoči na: