DownTS
...Dobrodosli na DownTS forum...
Molimo vas prijavite se, a ako nemate account registrujte se.


...programi, filmovi 300mb, igrice, slike, muzika...
 
PrijemKalendarRegistruj sePristupi
Traži
 
 

Rezultati od :
 
Rechercher Napredna potraga
Navigacija
 Portal
 Indeks
 Lista članova
 Profil
 FAQ - Često Postavljana Pitanja
 Traži
Zadnje teme
» Pevaj Brate (2010) DVDRip
Ned 07 Okt 2012, 9:55 pm od quovadis

» Burnout Paradise Full PC
Uto 19 Jun 2012, 11:52 pm od djodjo

» The Expendables (2010) + prevod
Čet 23 Feb 2012, 2:26 am od zrbrka

» DriverMax PRO 5.6
Sub 18 Feb 2012, 1:39 am od ziravuk

» Sherlock Holmes A Game Of Shadows (2011) CAM 400MB - 1link
Uto 10 Jan 2012, 12:31 pm od fantom92

» The Tourist[2010]DvDrip - 1link
Uto 10 Jan 2012, 2:39 am od fantom92

» The Dilemma 2011 BDRip
Uto 10 Jan 2012, 2:30 am od fantom92

» NEW KIDS TURBO (2011)
Uto 10 Jan 2012, 2:26 am od fantom92

» Red (2010) DvDrip-aXXo + prevod
Pon 09 Jan 2012, 1:51 pm od fantom92


Delite | 
 

 The Next Three Days (2010) DVDRIP XviD

Ići dole 
AutorPoruka
fantom92

avatar

Broj poruka : 617
Datum upisa : 05.01.2010
Godina : 26

PočaljiNaslov: The Next Three Days (2010) DVDRIP XviD   Sre 06 Apr 2011, 6:40 pm

The Next Three Days (2010) DVDRIP XviD

Kod:

Format                          : AVI
Format/Info                      : Audio Video Interleave
File size                        : 1.47 GiB
Duration                        : 2h 4mn
Overall bit rate                : 1 691 Kbps

Video
ID                              : 0
Format                          : MPEG-4 Visual
Format profile                  : Simple@L3
Format settings, BVOP            : No
Format settings, QPel            : No
Format settings, GMC            : No warppoints
Format settings, Matrix          : Default (H.263)
Codec ID                        : XVID
Codec ID/Hint                    : XviD
Duration                        : 2h 4mn
Bit rate                        : 1 550 Kbps
Width                            : 720 pixels
Height                          : 480 pixels
Display aspect ratio            : 1.500
Frame rate                      : 29.970 fps
Original frame rate              : 29.000 fps
Standard                        : NTSC
Resolution                      : 24 bits
Colorimetry                      : 4:2:0
Scan type                        : Progressive
Bits/(Pixel*Frame)              : 0.150
Stream size                      : 1.34 GiB (92%)
Writing library                  : XviD 1.2.1 (UTC 2008-12-04)

Audio
ID                              : 1
Format                          : MPEG Audio
Format version                  : Version 1
Format profile                  : Layer 3
Format_Settings_Mode            : Joint stereo / MS Stereo
Codec ID                        : 55
Codec ID/Hint                    : MP3
Duration                        : 2h 4mn
Bit rate mode                    : Constant
Bit rate                        : 128 Kbps
Channel(s)                      : 2 channels
Sampling rate                    : 44.1 KHz
Resolution                      : 16 bits
Stream size                      : 114 MiB (8%)
Alignment                        : Aligned on interleaves
Interleave, duration            : 26 ms (0.78 video frame)
Writing library                  : LAME3.98.2
http://www.imdb.com/title/tt1458175/









Kod:

http://www.fileserve.com/file/bbKUc3S



Kod:

http://www.filesonic.com/file/519283414/The_Next_Three_Days_DVDRip_XviD-MC8.part1.rar
http://www.filesonic.com/file/519277044/The_Next_Three_Days_DVDRip_XviD-MC8.part2.rar
http://www.filesonic.com/file/519145324/The_Next_Three_Days_DVDRip_XviD-MC8.part3.rar
Nazad na vrh Ići dole
 
The Next Three Days (2010) DVDRIP XviD
Nazad na vrh 
Strana 1 od 1

Dozvole ovog foruma:Ne možete odgovarati na teme u ovom forumu
DownTS :: Filmovi i Serije :: Strani filmovi-
Skoči na: