DownTS
...Dobrodosli na DownTS forum...
Molimo vas prijavite se, a ako nemate account registrujte se.


...programi, filmovi 300mb, igrice, slike, muzika...
 
PrijemKalendarRegistruj sePristupi
Traži
 
 

Rezultati od :
 
Rechercher Napredna potraga
Navigacija
 Portal
 Indeks
 Lista članova
 Profil
 FAQ - Često Postavljana Pitanja
 Traži
Zadnje teme
» Pevaj Brate (2010) DVDRip
Ned 07 Okt 2012, 9:55 pm od quovadis

» Burnout Paradise Full PC
Uto 19 Jun 2012, 11:52 pm od djodjo

» The Expendables (2010) + prevod
Čet 23 Feb 2012, 2:26 am od zrbrka

» DriverMax PRO 5.6
Sub 18 Feb 2012, 1:39 am od ziravuk

» Sherlock Holmes A Game Of Shadows (2011) CAM 400MB - 1link
Uto 10 Jan 2012, 12:31 pm od fantom92

» The Tourist[2010]DvDrip - 1link
Uto 10 Jan 2012, 2:39 am od fantom92

» The Dilemma 2011 BDRip
Uto 10 Jan 2012, 2:30 am od fantom92

» NEW KIDS TURBO (2011)
Uto 10 Jan 2012, 2:26 am od fantom92

» Red (2010) DvDrip-aXXo + prevod
Pon 09 Jan 2012, 1:51 pm od fantom92


Delite | 
 

 Elephant White 2011 WP XviD - iLLUSiON

Ići dole 
AutorPoruka
fantom92

avatar

Broj poruka : 617
Datum upisa : 05.01.2010
Godina : 26

PočaljiNaslov: Elephant White 2011 WP XviD - iLLUSiON   Sre 06 Apr 2011, 4:21 pm

Elephant White 2011 WP XviD - iLLUSiON

Kod:

      *********** ****    ****      ***      ******** *********** ****    *** **********
          *+*    +*+*+* *+*+*+  *+* *+*  *+*    *+*    *+*    *+*+*  *+* *+*
          +*+    +*+ +*+*+ +*+  +*+  +*+  +*+          +*+    *+*+*+  +*+ +*+
          +$+    +$+  +*+  +$+ +$++*++$++* *$*          +$+    +$+ +*+ +$+ +$++*++$
          +$+    +$+      +$+ +$+    +$+ +$+  +$+$    +$+    +$+  +$+$+$ +$+
          $+$    $+$      $+$ $+$    $+$ $+$    $+$    $+$    $+$  $+$+$ $+$
      $$$$$$$$$$$ $$$      $$$ $$$    $$$  $$$$$$$$ $$$$$$$$$$$ $$$    $$$$ $$$$$$$$$$

                          Another Fine Release Brought to you from - IMAGiNE

********************************************************************************************************************
                              Elephant White 2011 WP XViD AC3 - IMAGiNE
********************************************************************************************************************

Ripper ...........:IMAGiNE                                        IMDB Rating.......:n/a
Video Codec.......:XVID                                            Release Date......:15/02/11
Audio Codec.......:AC-3                                            Theatre Date......:n/a
Audio Bitrate.....:192                                            Runtime...........:1h 31mn
Subtitles.........:NIL                                            Language..........:ENGLISH
Resolution........:720  x 304                                      IMDb URL..........:http://www.imdb.com/title/tt1578882/
DETAILS:

Video
ID                              : 0
Format                          : MPEG-4 Visual
Format profile                  : Advanced Simple@L5
Format settings, BVOP            : Yes
Format settings, QPel            : No
Format settings, GMC            : No warppoints
Format settings, Matrix          : Default (MPEG)
Muxing mode                      : Packed bitstream
Codec ID                        : XVID
Codec ID/Hint                    : XviD
Duration                        : 1h 31mn
Bit rate                        : 1 952 Kbps
Width                            : 720 pixels
Height                          : 304 pixels
Display aspect ratio            : 2.35:1
Frame rate                      : 23.976 fps
Color space                      : YUV
Chroma subsampling              : 4:2:0
Bit depth                        : 8 bits
Scan type                        : Progressive
Bits/(Pixel*Frame)              : 0.372
Stream size                      : 1.25 GiB (91%)
Writing library                  : XviD 61

Audio
ID                              : 1
Format                          : AC-3
Format/Info                      : Audio Coding 3
Mode extension                  : CM (complete main)
Codec ID                        : 2000
Duration                        : 1h 31mn
Bit rate mode                    : Constant
Bit rate                        : 192 Kbps
Channel(s)                      : 2 channels
Channel positions                : Front: L R
Sampling rate                    : 48.0 KHz
Bit depth                        : 16 bits
Stream size                      : 126 MiB (9%)
Alignment                        : Aligned on interleaves
Interleave, duration            : 42 ms (1.00 video frame)
Interleave, preload duration    : 512 ms

SOURCES:

VIDEO: peeraccess... Thanks
AUDIO: peeraccess... Thanks

NOTES:

IMAGiNE bringing you another release..........Elephant White 2011....

Here we are with our encode of this movie for you all.Now we blur out the watermark.
Now for the video we just made a script containing white balance, rgb eq,
sharpness, chroma, brightness, contrast ect.With the audio it was
just a case of muxing the audio back to our encode...

Enjoy ;)









Filesonic:
Kod:

http://www.filesonic.com/file/128236581/EW.by.FANTOM.avi.part1.rar
http://www.filesonic.com/file/128236131/EW.by.FANTOM.avi.part2.rar
http://www.filesonic.com/file/128238031/EW.by.FANTOM.avi.part3.rar
http://www.filesonic.com/file/128235071/EW.by.FANTOM.avi.part4.rar
Nazad na vrh Ići dole
 
Elephant White 2011 WP XviD - iLLUSiON
Nazad na vrh 
Strana 1 od 1
 Similar topics
-
» Демографија Бачке Паланке
» Hunter x Hunter 2011

Dozvole ovog foruma:Ne možete odgovarati na teme u ovom forumu
DownTS :: Filmovi i Serije :: Strani filmovi-
Skoči na: