DownTS
...Dobrodosli na DownTS forum...
Molimo vas prijavite se, a ako nemate account registrujte se.


...programi, filmovi 300mb, igrice, slike, muzika...
 
PrijemKalendarRegistruj sePristupi
Traži
 
 

Rezultati od :
 
Rechercher Napredna potraga
Navigacija
 Portal
 Indeks
 Lista članova
 Profil
 FAQ - Često Postavljana Pitanja
 Traži
Zadnje teme
» Pevaj Brate (2010) DVDRip
Ned 07 Okt 2012, 9:55 pm od quovadis

» Burnout Paradise Full PC
Uto 19 Jun 2012, 11:52 pm od djodjo

» The Expendables (2010) + prevod
Čet 23 Feb 2012, 2:26 am od zrbrka

» DriverMax PRO 5.6
Sub 18 Feb 2012, 1:39 am od ziravuk

» Sherlock Holmes A Game Of Shadows (2011) CAM 400MB - 1link
Uto 10 Jan 2012, 12:31 pm od fantom92

» The Tourist[2010]DvDrip - 1link
Uto 10 Jan 2012, 2:39 am od fantom92

» The Dilemma 2011 BDRip
Uto 10 Jan 2012, 2:30 am od fantom92

» NEW KIDS TURBO (2011)
Uto 10 Jan 2012, 2:26 am od fantom92

» Red (2010) DvDrip-aXXo + prevod
Pon 09 Jan 2012, 1:51 pm od fantom92


Delite | 
 

 Drive Angry 2011 TS XViD v2

Ići dole 
AutorPoruka
fantom92

avatar

Broj poruka : 617
Datum upisa : 05.01.2010
Godina : 25

PočaljiNaslov: Drive Angry 2011 TS XViD v2   Pet 18 Mar 2011, 1:59 am

Drive Angry 2011 TS XViD v2

Kod:
Ripper ...........:IMAGiNE                                        IMDB Rating.......:6.4/10                         
Video Codec.......:XVID                                            Release Date......:06/03/11
Audio Codec.......:MP3                                            Theatre Date......:25/02/11
Audio Bitrate.....:128                                            Runtime...........:1h 32mn
Subtitles.........:NIL                                            Language..........:ENGLISH
Resolution........:720 x 480                                   

DETAILS:
Video
ID                              : 0
Format                          : MPEG-4 Visual
Format profile                  : Advanced Simple@L5
Format settings, BVOP            : Yes
Format settings, QPel            : No
Format settings, GMC            : No warppoints
Format settings, Matrix          : Default (MPEG)
Muxing mode                      : Packed bitstream
Codec ID                        : XVID
Codec ID/Hint                    : XviD
Duration                        : 1h 32mn
Bit rate                        : 1 979 Kbps
Width                            : 720 pixels
Height                          : 480 pixels
Display aspect ratio            : 1.500
Frame rate                      : 25.000 fps
Standard                        : NTSC
Resolution                      : 24 bits
Colorimetry                      : 4:2:0
Scan type                        : Progressive
Bits/(Pixel*Frame)              : 0.229
Stream size                      : 1.28 GiB (93%)
Writing library                  : XviD 61

Audio
ID                              : 1
Format                          : MPEG Audio
Format version                  : Version 1
Format profile                  : Layer 3
Codec ID                        : 55
Codec ID/Hint                    : MP3
Duration                        : 1h 32mn
Bit rate mode                    : Constant
Bit rate                        : 128 Kbps
Channel(s)                      : 2 channels
Sampling rate                    : 44.1 KHz
Resolution                      : 16 bits
Stream size                      : 84.9 MiB (6%)
Alignment                        : Split accross interleaves
Interleave, duration            : 40 ms (1.00 video frame)
Interleave, preload duration    : 500 ms .





Filesonic:
Kod:

http://www.filesonic.com/file/268751564/Drive Angry 2011 TS XViD V2.part1.rar
http://www.filesonic.com/file/268707964/Drive Angry 2011 TS XViD V2.part2.rar
http://www.filesonic.com/file/268734344/Drive Angry 2011 TS XViD V2.part3.rar
http://www.filesonic.com/file/268812064/Drive Angry 2011 TS XViD V2.part4.rar

Fileserve:
Kod:

http://www.fileserve.com/file/JP79n6z
http://www.fileserve.com/file/qNu72Yq
http://www.fileserve.com/file/urDQNwQ
http://www.fileserve.com/file/qSRTe85

Duckload:
Kod:

http://www.duckload.com/dl/EosD2
http://www.duckload.com/dl/6osD2
http://www.duckload.com/dl/8osD2
http://www.duckload.com/dl/N1sD2
Nazad na vrh Ići dole
 
Drive Angry 2011 TS XViD v2
Nazad na vrh 
Strana 1 od 1
 Similar topics
-
» Демографија Бачке Паланке
» Hunter x Hunter 2011

Dozvole ovog foruma:Ne možete odgovarati na teme u ovom forumu
DownTS :: Filmovi i Serije :: Strani filmovi-
Skoči na: